Help - Search - Members - Calendar
Full Version: Cleanse The Destroyers - Cleanse The Destroyers (2019)
Metal Area - Extreme Music Portal > Releases Area / Релизы > Archive
necroscum


*Artist: Cleanse The Destroyers
*Album: Cleanse The Destroyers
*Year: 2019
*Genre: Death Metal
*Country: United States
*Format: mp3@CBR320kbps
*Size: 69MB

Tracklist:
01. Monolithic Dialogues 02:59
02. 24 Ridges 03:54
03. Calloused, Singed, And Severed 02:09
04. The Apparition (Of Phobos Forest) 03:04
05. Murder Authority 03:04
06. A Stumble Across the Trail of the Dead 03:41
07. Ruby Rivers and Clouded Eyes 04:06
08. Shrouds of Aeon 04:25
******************************
Total playing time: 27:22



Technical info

Input File: 02. 24 Ridges.mp3
Channels : 2
Sample Rate : 44100
Precision : 16-bit
Duration : 00:03:54.52 = 10342200 samples = 17588.8 CDDA sectors
File Size : 10.2M
Bit Rate : 347k
Sample Encoding: MPEG audio (layer I, II or III)
Comments :
Title=24 Ridges
Artist=Cleanse the Destroyers
Album=Cleanse the Destroyers
Tracknumber=2/8
Year=2019



[ Hidden Text ]
AHBAnep

Дескор какой-то с примесями. Жутко исполненный и записанный.
Andrew
This is a "lo-fi" version of our main content. To view the full version with more information, formatting and images, please click here.
Invision Power Board © 2001-2020 Invision Power Services, Inc.