Help - Search - Members - Calendar
Full Version: Chaotic Dimenzions - Ad Penumbra (2019)
Metal Area - Extreme Music Portal > Releases Area / Релизы > Archive
necroscum


*Artist: Chaotic Dimenzions
*Album: Ad Penumbra
*Year: 2019
*Genre: Black Metal
*Country: Chile
*Format: mp3@CBR320kbps
*Size: 103MB

Tracklist:
01. Through the Darkest Maze
02. Destroyer of Wisdom
03. Penumbra
04. Portrait of an Isolated Coma
05. Mirrors of Anger
06. Actus Mortis
******************************
Total playing time: 44:51



Technical info

Input File: 02. Destroyers of Wisdom.mp3
Channels : 2
Sample Rate : 44100
Precision : 16-bit
Duration : 00:04:13.27 = 11169383 samples = 18995.5 CDDA sectors
File Size : 10.9M
Bit Rate : 343k
Sample Encoding: MPEG audio (layer I, II or III)
Comments :
Title=Destroyers of Wisdom
Artist=Chaotic Dimenzions
Album=Ad Penumbra
Tracknumber=2/7
Year=2019



[ Hidden Text ]
zargonath
[ Hidden Text ]
This is a "lo-fi" version of our main content. To view the full version with more information, formatting and images, please click here.
Invision Power Board © 2001-2019 Invision Power Services, Inc.