Help - Search - Members - Calendar
Full Version: Intrinsic Souls - Voices Of Mind (2019)
Metal Area - Extreme Music Portal > Releases Area / Релизы > Archive
necroscum


*Artist: Intrinsic Souls
*Album: Voices Of Mind
*Year: 2019
*Genre: Melodic Power Metal
*Country: Mexico
*Format: mp3@CBR320kbps
*Size: 117MB

Tracklist:
01. Introduccion
02. Escape
03. Fighter
04. Awake
05. Sweet Sorrow
06. Feel Your Soul
07. When I Find You
08. Agony
09. Voices Of Mind
******************************
Total playing time: 50:54



Technical info

Input File: 02. Escape.mp3
Channels : 2
Sample Rate : 44100
Precision : 16-bit
Duration : 00:06:05.11 = 16101351 samples = 27383.2 CDDA sectors
File Size : 15.2M
Bit Rate : 334k
Sample Encoding: MPEG audio (layer I, II or III)
Comments :
Title=Escape
Artist=Intrinsic Souls
Album=Voices of Mind
Tracknumber=2/9
Year=2019



[ Hidden Text ]
timteam88
FLAC: https://yadi.sk/d/B7jNb22WfZhUFw
This is a "lo-fi" version of our main content. To view the full version with more information, formatting and images, please click here.
Invision Power Board © 2001-2019 Invision Power Services, Inc.