*Artist: Animus Stench
*Album: Lynching The Lunacy
*Year: 2019
*Genre: Death Metal
*Country: United States
*Format: mp3@CBR320kbps
*Size: 92MB

Tracklist:
01. I. Peperit, II. Exitium 01:06
02. Driving Nails into Flesh 04:04
03. Lynching the Lunacy 04:37
04. Burn in Hell With Me 04:17
05. Unpure Divination 03:50
06. Rotting Ways of Life 05:48
07. Dream With A Cost 04:22
08. I, Despair 04:22
09. The Seven Years 06:52
******************************
Total playing time: 39:18



Technical info

Input File: 02. Driving Nails Into Flesh.mp3
Channels : 2
Sample Rate : 44100
Precision : 16-bit
Duration : 00:04:04.10 = 10764986 samples = 18307.8 CDDA sectors
File Size : 10.0M
Bit Rate : 328k
Sample Encoding: MPEG audio (layer I, II or III)
Comments :
Title=Driving Nails Into Flesh
Artist=Animus Stench
Album=Lynching the Lunacy
Tracknumber=2/9
Year=2019



[ Hidden Text ]