Help - Search - Members - Calendar
Full Version: Tom Gekas - Blasphemy (2019)
Metal Area - Extreme Music Portal > Releases Area / Релизы > Archive
necroscum


*Artist: Tom Gekas
*Album: Blasphemy
*Year: 2019
*Genre: Depressive Black Metal
*Country: Germany
*Format: mp3@CBR320kbps
*Size: 86MB

Tracklist:
01. Astaroth is Coming 04:01
02. Blasphemy 04:46
03. Religion = War 03:36
04. Cruzifix 03:51
05. Satanist 03:49
06. Depression is a Demon, Pt. 1 11:12
07. Depression is a Demon, Pt. 2 05:46
******************************
Total playing time: 37:01



Technical info

Input File: 02. Blasphemy.mp3
Channels : 2
Sample Rate : 44100
Precision : 16-bit
Duration : 00:04:46.97 = 12655553 samples = 21523 CDDA sectors
File Size : 11.6M
Bit Rate : 325k
Sample Encoding: MPEG audio (layer I, II or III)
Comments :
Title=Blasphemy
Artist=Tom Gekas
Album=Blasphemy
Tracknumber=2/7
Year=2019



[ Hidden Text ]
craP_cillA
"Depressive Suicidal Black Metal"
isvili
Стиль: Symphonic Black Metal 25.gif 25.gif 25.gif Не-а!!!
Aectan
Идиотизм какой-то, где они ещё такого левого вокалёра нарыли 15.gif
This is a "lo-fi" version of our main content. To view the full version with more information, formatting and images, please click here.
Invision Power Board © 2001-2019 Invision Power Services, Inc.