Help - Search - Members - Calendar
Full Version: Aspic - Stars Collide (2019)
Metal Area - Extreme Music Portal > Releases Area / Релизы > Archive
necroscum


*Artist: Aspic
*Album: Stars Collide
*Year: 2019
*Genre: Progressive Metal
*Country: El Salvador
*Format: mp3@CBR320kbps
*Size: 108MB

Tracklist:
01. Stars Collide 08:40
02. Parallax 04:29
03. The Event Horizon 05:26
04. Under Melting Skies 06:57
05. Mirrors 05:59
06. Introspective 03:39
07. What We Are 07:54
08. Sunrise (feat. Julio Rodas) 02:33
******************************
Total playing time: 45:37




Technical info

Input File: 02. Parallax.mp3
Channels : 2
Sample Rate : 44100
Precision : 16-bit
Duration : 00:04:29.60 = 11889404 samples = 20220.1 CDDA sectors
File Size : 11.3M
Bit Rate : 335k
Sample Encoding: MPEG audio (layer I, II or III)
Comments :
Title=Parallax
Artist=Aspic
Album=Stars Collide
Tracknumber=2/8
Year=2019



[ Hidden Text ]
AHBAnep
Счастливые сальвадорские дети! Аж на душе приятно.
Слушать не надо.
Yarri
Мусор, как 95% FF-progressive metal.
This is a "lo-fi" version of our main content. To view the full version with more information, formatting and images, please click here.
Invision Power Board © 2001-2019 Invision Power Services, Inc.