Help - Search - Members - Calendar
Full Version: Quantum Solaris - The Power Of Greed [ep] (2019)
Metal Area - Extreme Music Portal > Releases Area / Релизы > Archive
necroscum


*Artist: Quantum Solaris
*Album: The Power Of Greed [ep]
*Year: 2019
*Genre: Melodic Death Metal
*Country: Denmark
*Format: mp3@CBR320kbps
*Size: 61MB

Tracklist:
01. Amerikarma
02. The Storm
03. Solar Exterminum
04. The Power of Greed
******************************
Total playing time: 26:33



Technical info

Input File: 02. The Storm.mp3
Channels : 2
Sample Rate : 44100
Precision : 16-bit
Duration : 00:06:51.61 = 18152045 samples = 30870.8 CDDA sectors
File Size : 17.3M
Bit Rate : 336k
Sample Encoding: MPEG audio (layer I, II or III)
Comments :
Title=The Storm
Artist=Quantum Solaris
Album=The Power of Greed
Tracknumber=2/4
Year=2019



[ Hidden Text ]
AHBAnep

не дозрели
Andrew
ЦИТАТА(AHBAnep @ Jul 12 2019, 19:36:01) *
не дозрели

Ну...сыграно неплохо, только как для мелодеза - медленновато. Побыстрее, поразнообразнее и было бы все очень даже и неплохо.
avather
ЦИТАТА(Andrew @ Jul 13 2019, 00:33:09) *
Ну...сыграно неплохо, только как для мелодеза - медленновато. Побыстрее, поразнообразнее и было бы все очень даже и неплохо.

medlenniy neraznoobrazny death metal
timteam88
FLAC: https://yadi.sk/d/JvSwNdPj8WEEPg
This is a "lo-fi" version of our main content. To view the full version with more information, formatting and images, please click here.
Invision Power Board © 2001-2019 Invision Power Services, Inc.