Help - Search - Members - Calendar
Full Version: Theatre Of Tragedy - Remixed [compilation] (2019)
Metal Area - Extreme Music Portal > Releases Area / Релизы > New Releases > Unformat R:
Necrokilldozer


*Artist: Theatre Of Tragedy
*Album: Remixed [compilation]
*Year: 2019
*Genre: Industrial/Electronica, Gothic Metal/Rock
*Country: Norway
*Format: mp3@CBR320kbps
*Size: 175MB

Tracklist:
1. And When He Falleth (Das Ich Remix)
2. Black as the Devil Painteth (Das Ich Remix)
3. Lorelei (Icon of Coil Remix)
4. Reverie (Current Remix)
5. Machine (VNV Nation Remix)
6. Envision (Conetik Remix)
7. Let You Down (Rico Darum & Superdead Remix)
8. Motion (Funker Vogt Remix)
9. Storm (Zeromancer Remix)
10. Fade (Pride and Fall Remix)
11. Frozen (Ambrosius Remix)
12. Deadland (Tommy Olsson Remix)
13. Forever Is the World (Siva Six Remix)
******************************
Total playing time: 1:13:17

Extended info



Technical info

Input File: 12. Deadland (Tommy Olsson Remix).mp3
Channels : 2
Sample Rate : 44100
Precision : 16-bit
Duration : 00:04:47.55 = 12680911 samples = 21566.2 CDDA sectors
File Size : 11.5M
Bit Rate : 320k
Sample Encoding: MPEG audio (layer I, II or III)
Comments :
Title=Deadland (Tommy Olsson Remix)
Artist=Theatre Of Tragedy
Album=Remixed (Compilation)
Tracknumber=12
Year=2019
Genre=Industrial/Electronica, Gothic Metal/Rock



[ Hidden Text ]
kostja
Это старые ремиксы со всяких EP-шек или новые?
JPV
ЦИТАТА(kostja @ Jul 12 2019, 21:36:15) *
Это старые ремиксы со всяких EP-шек или новые?

Написано, что некоторые были записаны в 2019 году и ранее не издавались. Но какие именно, не указано. Подозреваю, что Сторм. Насчет остальных ковыряться надо.
дивин
У них самих то не рябит от слов remix?
Emm Human
ЦИТАТА(JPV @ Jul 15 2019, 13:57:09) *
Написано, что некоторые были записаны в 2019 году и ранее не издавались.

Хы! Кого кто записывал, когда группы уже почти 9 лет нет... Всегда это смешит! Наверно лейбл пытается ещё соков выжать.

А так кстати камбэк бы очень даже был бы в радость
6666666
Лучше бы со студийником вернулись.
Emm Human
Твоя правда 9.gif
Metalass
QUOTE(Emm Human @ Jul 17 2019, 04:35:30) *
Хы! Кого кто записывал, когда группы уже почти 9 лет нет... Всегда это смешит!


Хм... ну это же ремиксы других чуваков, не из группы. Поэтому никаких несостыковок не вижу.

Другое дело - кому эти ремиксы упали. Ну, может найдет своего слушателя. Может и группе что перепадет crazy.gif
6666666
Всё-таки скачал. С богом.
russ777
ЦИТАТА(6666666 @ 19th July 2019 - 22:56:58) *
Всё-таки скачал. С богом.

-Отчаянный ты парень, однако . m1801.gif
6666666
Бога нет. Фигня.
Emm Human
Трек-лист (почти весь из вещей периода после Aegis) и характер (ремиксы) говорят обо всём и сразу. Поэтому интересно, что ты там ожидал ещё. smile1.gif
6666666
Ремиксы бывают удачные. Даже у самой группы на Closure очень хорошая переделка "Black as the Devil Painteth" была.
Emm Human
Ну... *разводя руками
DenisKov
Дичь какая то.
This is a "lo-fi" version of our main content. To view the full version with more information, formatting and images, please click here.
Invision Power Board © 2001-2019 Invision Power Services, Inc.