Help - Search - Members - Calendar
Full Version: Kairos - Queen Of The Hill (2019)
Metal Area - Extreme Music Portal > Releases Area / Релизы > New Releases
Samaritianin


*Artist: Kairos
*Album: Queen Of The Hill
*Year: 2019
*Genre: Heavy Metal
*Country: Sweden
*Format: mp3@CBR320kbps
*Size: 103MB

Tracklist:
01. Reckless Dedication
02. Strike While the Iron Is Hot
03. Mr. Nocturne
04. Silver Heart
05. Japanese Steel
06. Merciless Domine
07. Enchanted Age
08. Queen of the Hill
******************************
Total playing time: 45:04



Extended info
Erik Andersson Drums
Tom Hamström Vocals
Carl Rudhede Guitars (lead) (2012-present)
Viktor Envall Bass (2014-present)
See also: ex-Resurrector
Emil Beaird Guitar (2014-present)



Technical info

Input File: 3 - Mr. Nocturne.mp3
Channels : 2
Sample Rate : 44100
Precision : 16-bit
Duration : 00:05:38.20 = 14914576 samples = 25364.9 CDDA sectors
File Size : 13.6M
Bit Rate : 321k
Sample Encoding: MPEG audio (layer I, II or III)
Comments :
Title=Mr. Nocturne
Artist=Kairos
Album=Queen Of The Hill
Tracknumber=3
Year=2019
Genre=Heavy Metal
Discnumber=1



[ Hidden Text ]
Samaritianin
Cloud Mail 320
[ Hidden Text ]
Andrew
Ох какой нафффталинище! С первых же аккордов переносишься годков этак на 30 назад. Хороший, приятный ламповый материал. 20.gif
LightWizard
Помню,в прошлом году они здорово выступили на разогреве у Удо в Ярославле. Все по старой школе и с душой. 20.gif
Витон
Хороший, крепкий альбом в духе 80х, спасибо за релиз!!
Yarri
Какой классный альбом! Тот самый случай, когда не поворачивается назвать материал вторичным. Всё в лучших традициях золотого века хэви.
This is a "lo-fi" version of our main content. To view the full version with more information, formatting and images, please click here.
Invision Power Board © 2001-2019 Invision Power Services, Inc.