Help - Search - Members - Calendar
Full Version: Shoot The Messiah - Kill All Gods (2019)
Metal Area - Extreme Music Portal > Releases Area / Релизы > New Releases
Samaritianin


*Artist: Shoot The Messiah
*Album: Kill All Gods
*Year: 2019
*Genre: Death/Thrash Metal
*Country: Netherlands
*Format: mp3@CBR320kbps
*Size: 113MB

Tracklist:
01. Oblivion Walker
02. Arise
03. Shoot the Messiah
04. Adducam Infernum
05. Here Dead We Lie
06. Locust of the Abyss
07. Civiltrapped
08. Morgellon
******************************
Total playing time: 49:40



Extended info
Michael Lubbersen Bass, Vocals (backing) (2015-present)
See also: ex-Morgellon
Simon Hofman Drums (2015-present)
Serge van der Haar Guitars (lead) (2015-present)
See also: ex-Morgellon
Leroy de Raad Vocals, Guitars (rhythm) (2015-present)
See also: ex-Morgellon


Technical info

Input File: 3 - Shoot the Messiah.mp3
Channels : 2
Sample Rate : 44100
Precision : 16-bit
Duration : 00:08:34.43 = 22686407 samples = 38582.3 CDDA sectors
File Size : 20.6M
Bit Rate : 321k
Sample Encoding: MPEG audio (layer I, II or III)
Comments :
Title=Shoot the Messiah
Artist=Shoot the Messiah
Album=Kill All Gods
Tracknumber=3
Year=2019
Genre=Metal
Discnumber=1



[ Hidden Text ]
Samaritianin
Cloud Mail 320
[ Hidden Text ]
Andrew
This is a "lo-fi" version of our main content. To view the full version with more information, formatting and images, please click here.
Invision Power Board © 2001-2019 Invision Power Services, Inc.