Help - Search - Members - Calendar
Full Version: Necromonarchia Daemonum - Alter Mortem [demo] (2015)
Metal Area - Extreme Music Portal > Releases Area / Релизы > New Releases > Low Bitrate
Абигор


*Artist: Necromonarchia Daemonum
*Album: Alter Mortem [demo]
*Year: 2015
*Genre: Black/Doom Metal
*Country: Finland
*Format: mp3@CBR320kbps
*Size: 28MB

Tracklist:
1. Apparition Beyond The Perceptible (Intro) 01:35
2. Dungeons Of The Dead Screeches 03:05
3. Citadel Of The Satans Spawn 02:48
4. Dead Moon Obeisance... (Outro) 04:35
******************************
Total playing time: 12:03



Technical info

Input File: Necromonarchia Daemonum - 02 - Dungeons Of The Dead Screeches.mp3
Channels : 2
Sample Rate : 44100
Precision : 16-bit
Duration : 00:03:04.72 = 8146240 samples = 13854.1 CDDA sectors
File Size : 7.39M
Bit Rate : 320k
Sample Encoding: MPEG audio (layer I, II or III)
Comments :
Title=Dungeons Of The Dead Screeches
Artist=Necromonarchia Daemonum
Album=Alter Mortem
Tracknumber=02/04
Year=2015
Genre=Black Metal



[ Hidden Text ]
maringlen
really great stuff my friend
This is a "lo-fi" version of our main content. To view the full version with more information, formatting and images, please click here.
Invision Power Board © 2001-2020 Invision Power Services, Inc.