*Artist: Despising Humanity
*Album: Plaga Abominable [ep]
*Year: 2019
*Genre: Brutal Death Metal
*Country: Chile
*Format: mp3@CBR320kbps
*Size: 33MB

Tracklist:
1. Delirio de negación 03:48
2. Intervalo de destrucción 03:20
3. Plaga abominable 03:39
4. Solo la muerte es cierta 02:59
******************************
Total playing time: 13:46




Extended info
Richard Rojas Flores Bass
Morbi Avalos Castillo Guitars


Technical info

Input File: 02. Intervalo de Destrucciвn.mp3
Channels : 2
Sample Rate : 44100
Precision : 16-bit
Duration : 00:03:21.00 = 8864100 samples = 15075 CDDA sectors
File Size : 8.38M
Bit Rate : 334k
Sample Encoding: MPEG audio (layer I, II or III)
Comments :
Title=Intervalo de Destrucción
Artist=Despising Humanity
Album=Plaga Abominable
Tracknumber=02
Year=2019
Genre=Metal



[ Hidden Text ]