Help - Search - Members - Calendar
Full Version: Draugr - Hymns Of Temptation (2019)
Metal Area - Extreme Music Portal > Releases Area / Релизы > Archive
Samaritianin


*Artist: Draugr
*Album: Hymns Of Temptation
*Year: 2019
*Genre: Melodic Death Metal
*Country: United Kingdom
*Format: mp3@CBR320kbps
*Size: 94MB

Tracklist:
01. Nothing (Left for Me)
02. Path to the Sky
03. Towards the End
04. Kingdom of the Shades
05. Kuolemanpyörä
06. Hymn of Temptation
07. Perish Song
08. Wither Away
******************************
Total playing time: 37:06




Extended info
James Kelly Drums, Vocals (backing) (2013-present)
See also: Cerberus Unchained
Shea "Janne" Mackay Vocals, Guitars (2013-present)
Dan Tuck Bass (2016-present)
Chay "Ahti" Johnson Guitars (2016-present)
Ellen Meadows Keyboards (2016-present)


Technical info

Input File: 03 Towards the End.mp3
Channels : 2
Sample Rate : 44100
Precision : 16-bit
Duration : 00:05:34.83 = 14765959 samples = 25112.2 CDDA sectors
File Size : 13.7M
Bit Rate : 327k
Sample Encoding: MPEG audio (layer I, II or III)
Comments :
Title=Towards The End
Artist=Draugr
Album=Hymns Of Temptation
Tracknumber=03
Year=2019



[ Hidden Text ]
yorsh
Influenced by bands such as Kalmah, Wintersun, Children of Bodom and In Flames.
Dreamtale
Пионерский третьесорт.
DenisKov
Похоже на демку из середины 90х.
This is a "lo-fi" version of our main content. To view the full version with more information, formatting and images, please click here.
Invision Power Board © 2001-2020 Invision Power Services, Inc.