Help - Search - Members - Calendar
Full Version: Evil Joe - Nuclear Vacation (2019)
Metal Area - Extreme Music Portal > Releases Area / Релизы > Archive
Samaritianin


*Artist: Evil Joe
*Album: Nuclear Vacation
*Year: 2019
*Genre: Thrash Metal
*Country: Croatia
*Format: mp3@CBR320kbps
*Size: 76MB

Tracklist:
1. Mad Trucker 03:10
2. Evil Joe 03:17
3. Ashley J 03:16
4. Fucker from Hell 04:09
5. Nuclear Bukkake Apocalypse Massacre 02:51
6. Zombie Pope 03:29
7. Turbo Duck Lover 03:02
8. S.M.R.T. (Smart Machine Robotic Technocracy) 03:38
9. Bullet (Misfits cover) 01:36
10. Nuklearni Holokaust 05:38
******************************
Total playing time: 34:06




Extended info
Vaginator Žnjole Guitars, Bass, Vocals, Drums programming (2019-present)
See also: ex-Melkor


Technical info

Input File: Evil Joe - Nuclear vacation - 02 Evil Joe.mp3
Channels : 2
Sample Rate : 44100
Precision : 16-bit
Duration : 00:03:17.68 = 8717644 samples = 14825.9 CDDA sectors
File Size : 8.04M
Bit Rate : 325k
Sample Encoding: MPEG audio (layer I, II or III)
Comments :
Title=Evil Joe
Artist=Evil Joe
Album=Nuclear vacation
Tracknumber=2
Year=2019



[ Hidden Text ]
Darkness
звук параша какая то, впрочем как и музыка, откровенный шлак.Если раньше релизы Самаритянина были для меня показателем хороших групп, то в последнее время он какой левак сует.
Samaritianin
ЦИТАТА(Darkness @ 13th August 2019 - 13:51:02) *
Если раньше релизы Самаритянина были для меня показателем хороших групп, то в последнее время он какой левак сует.

Это ж не моя прихоть и не моя группа))))
Что попалось,то и запилил.
P.S. группа не группа,а один человек и играет он бесспорно безкомпромиссное говно! bye.gif
vosmidesijatye
ЦИТАТА(Darkness @ Aug 13 2019, 15:51:02) *
Если раньше релизы Самаритянина были для меня показателем хороших групп, то в последнее время он какой левак сует.


Так не он же записывает музло, а уж левак - не левак - тут каждый сам опрелеляет.

Что одному левак - другому первосорт.
This is a "lo-fi" version of our main content. To view the full version with more information, formatting and images, please click here.
Invision Power Board © 2001-2022 Invision Power Services, Inc.