Help - Search - Members - Calendar
Full Version: Nattesorg - From The Mountain (2018)
Metal Area - Extreme Music Portal > Releases Area / Релизы > Archive
necroscum


*Artist: Nattesorg
*Album: From The Mountain
*Year: 2018
*Genre: Unblack Metal
*Country: Norway
*Format: mp3@CBR320kbps
*Size: 150MB

Tracklist:
01. Out Of The Tombs 07:06
02. The Hands Of Men 08:06
03. The Third Day 06:23
04. From The Mountain 05:19
05. Knowing Their Hypocrisy 08:31
06. Suffer Many Things 05:41
07. Hear The Voice 06:21
08. God And Savior 05:06
09. Glorifying Christ 06:55
10. Old Life Is Gone 06:24
******************************
Total playing time: 1:05:52






Technical info

Input File: 02 Delivered into the Hands of Men.mp3
Channels : 2
Sample Rate : 44100
Precision : 16-bit
Duration : 00:08:06.80 = 21467660 samples = 36509.6 CDDA sectors
File Size : 19.5M
Bit Rate : 320k
Sample Encoding: MPEG audio (layer I, II or III)
Comments :
Title=Delivered into the Hands of Men
Artist=Nattesorg
Album=From the Mountain
Tracknumber=2/10
Year=2018
Genre=Black Metal
Discnumber=1/1



[ Hidden Text ]
RUSP73
Христианин-многостаночник
Borderline1991
[ Hidden Text ]
This is a "lo-fi" version of our main content. To view the full version with more information, formatting and images, please click here.
Invision Power Board © 2001-2020 Invision Power Services, Inc.