Help - Search - Members - Calendar
Full Version: Debrained - Debrained [ep] (2019)
Metal Area - Extreme Music Portal > Releases Area / Релизы > Archive
Samaritianin


*Artist: Debrained
*Album: Debrained [ep]
*Year: 2019
*Genre: Death Metal
*Country: United States
*Format: mp3@CBR320kbps
*Size: 40MB

Tracklist:
1. All Enslaved 03:03
2. Galantamine (take as prescribed) 04:43
3. Final Hour 03:26
4. Exiled at Birth 03:03
5. Will of Hate 03:03
******************************
Total playing time: 17:18




Extended info
Daniel McGill - Guitar
Kenny Johnson - Drums
Chris Mulcahy - Vocals
Dan Kunkel - Bass Guitar
Trent Cook - Guitar


Technical info

Input File: 02 - Galantamine.mp3
Channels : 2
Sample Rate : 44100
Precision : 16-bit
Duration : 00:04:43.13 = 12486033 samples = 21234.8 CDDA sectors
File Size : 11.4M
Bit Rate : 323k
Sample Encoding: MPEG audio (layer I, II or III)
Comments :
Title=Galantamine
Artist=Debrained
Album=Debrained
Tracknumber=2
Year=2019-04-22
Genre=Metal
Discnumber=1



[ Hidden Text ]
Samaritianin
FLAC (Tracks) 117 mb
[ Hidden Text ]
This is a "lo-fi" version of our main content. To view the full version with more information, formatting and images, please click here.
Invision Power Board © 2001-2020 Invision Power Services, Inc.