Help - Search - Members - Calendar
Full Version: Judas Priest - Madison Square Madness, NY, USA 1984 [bootleg] (1984)
Metal Area - Extreme Music Portal > Releases Area / Релизы > New Releases > Lossless
warrr


*Artist: Judas Priest
*Album: Madison Square Madness, NY, USA 1984 [bootleg]
*Year: 1984
*Genre: NWOBHM
*Country: United Kingdom
*Format: mp3@CBR320kbps
*Size: 85MB

Tracklist:
CD 1:
01 Love Bites 06:20
02 Jawbreaker 04:19
03 Grinder 04:24
04 Metal Gods 04:23
05 Breaking the Law 03:25
06 Sinner 08:37
07 Desert Plains 05:16
08 Some Heads Are Gonna Roll 04:43
09 The Sentinel 05:32
10 Rock Hard, Ride Free 06:51
11 Night Comes Down 04:40
CD 2:
01 The Hellion/Electric Eye 04:28
02 Heavy Duty/Defenders of the Faith 05:27
03 Freewheel Burning 04:58
04 Victim of Changes 10:28
05 The Green Manalishi 05:57
06 Living After Midnight 05:41
07 Hell Bent for Leather 05:59
08 You've Got Another Thing Comin' 10:49
******************************
Total playing time: 1:52:17

Technical info

Input File: 02. Jawbreaker.mp3
Channels : 2
Sample Rate : 44100
Precision : 16-bit
Duration : 00:04:19.54 = 11445890 samples = 19465.8 CDDA sectors
File Size : 10.4M
Bit Rate : 320k
Sample Encoding: MPEG audio (layer I, II or III)
Comments :
Title=Jawbreaker
Artist=Judas Priest
Album=Madison Square Madness Disc 1
Tracknumber=02
Year=1984



[ Hidden Text ]
thenecromancer
QUOTE(Wail @ Sep 29 2019, 01:01:31) *
Please can you reup

+ 1 pray.gif
Borderline1991
[ Hidden Text ]
This is a "lo-fi" version of our main content. To view the full version with more information, formatting and images, please click here.
Invision Power Board © 2001-2020 Invision Power Services, Inc.