Help - Search - Members - Calendar
Full Version: Wolftopia - I Am The Storm [ep] (2019)
Metal Area - Extreme Music Portal > Releases Area / Релизы > Archive
Samaritianin


*Artist: Wolftopia
*Album: I Am The Storm [ep]
*Year: 2019
*Genre: Melodic Death Metal
*Country: Finland
*Format: mp3@CBR320kbps
*Size: 23MB

Tracklist:
01. I Am the Storm 04:58
02. May He Sever the Shadow 04:48
******************************
Total playing time: 9:46



Extended info
Aleksander Okhotnikov - Vocals & guitars
Tom Israels - Drums
Tim Reus - Bass


Technical info

Input File: 01 - I Am the Storm.mp3
Channels : 2
Sample Rate : 44100
Precision : 16-bit
Duration : 00:04:58.07 = 13145019 samples = 22355.5 CDDA sectors
File Size : 12.0M
Bit Rate : 323k
Sample Encoding: MPEG audio (layer I, II or III)
Comments :
Title=I Am the Storm
Artist=Wolftopia
Album=I Am the Storm
Tracknumber=1
Year=2019-05-03
Genre=Metal
Discnumber=1



[ Hidden Text ]
isvili
Жаль что так мало, некий замес между Kalmah и Catamenia.
Old Vyaine
Неплохо, но слишком стандартно. Может, на полноформате что толковое будет.
This is a "lo-fi" version of our main content. To view the full version with more information, formatting and images, please click here.
Invision Power Board © 2001-2020 Invision Power Services, Inc.