Help - Search - Members - Calendar
Full Version: Eryx - Killing For Escape (2019)
Metal Area - Extreme Music Portal > Releases Area / Релизы > Archive
Samaritianin


*Artist: Eryx
*Album: Killing For Escape
*Year: 2019
*Genre: Thrash/Groove Metal
*Country: Russian Federation
*Format: mp3@CBR320kbps
*Size: 63MB

Tracklist:
1. Final Prayer 04:32
2. Lost 04:15
3. Kings of Nothing Life 05:08
4. Blood Runs Slowly 03:53
5. Killing for Escape 03:31
6. Dead Men Attack 04:11
7. За горизонт 04:22
******************************
Total playing time: 29:52




Extended info
Oleg Ayvazyan Guitars
Timur Kerimov Drums (2011-present)
Evgeny Chistyakov Guitars (2011-present)
Vladimir Gushuley Bass (2012-present)
Anton Kornilin Vocals (2014-present)


Technical info

Input File: 03 - Kings of Nothing Life.mp3
Channels : 2
Sample Rate : 44100
Precision : 16-bit
Duration : 00:05:08.81 = 13618521 samples = 23160.8 CDDA sectors
File Size : 12.5M
Bit Rate : 323k
Sample Encoding: MPEG audio (layer I, II or III)
Comments :
Title=Kings Of Nothing Life
Artist=Eryx
Album=Killing For Escape
Tracknumber=03/07
Year=2019
Genre=Метал
Discnumber=1/1



[ Hidden Text ]
Andrew
Кстати, сыграно очень даже ничего. Но вот этот дурацкий и вокал и манера исполнения все портят!
Hey_You
Вокал вполне удобоваримый, тяготеющий более к хардкору и общее впечатление никак не портящий. Достойный релиз.
Foneg
Жирнючая пачка с сочным звонким басом качает знатно!
От "дурацкого" вокала я ожидал какой-то реальной фигни, но тут всё как я люблю - подача мощная и хардкорная.

Зачёт что из России 20.gif
Paradayz
Классный альбом! 20.gif
This is a "lo-fi" version of our main content. To view the full version with more information, formatting and images, please click here.
Invision Power Board © 2001-2020 Invision Power Services, Inc.