*Artist: Overture
*Album: Fallen Empire
*Year: 1997
*Genre: Death Metal
*Country: United States
*Format: mp3@CBR192kbps
*Size: 75MB

Tracklist:
1. Cycles Of Blood 04:17
2. Purity 06:45
3. The Angels Decend 04:31
4. Chapter 1: Retribution 02:24
5. Martyr 05:32
6. The End Unto Those Mortal 06:00
7. Sacrifice 02:31
8. Chapter II: Deliverence 01:37
9. Revel In Darkness 04:48
10. Purgatory 05:35
11. Fallen Empire II 05:02
12. Chapter III: Ingestion 06:46
******************************
Total playing time: 55:48



Extended info
Band from Olathe, Kansas.


Technical info

Input File: 01-Cycles of Blood.mp3
Channels : 2
Sample Rate : 44100
Precision : 16-bit
Duration : 00:04:17.66 = 11362718 samples = 19324.4 CDDA sectors
File Size : 6.18M
Bit Rate : 192k
Sample Encoding: MPEG audio (layer I, II or III)
Comments :
Title=Cycles of Blood
Artist=Overture (US, KS)
Album=Fallen Empire
Tracknumber=01
Year=1997
Genre=Death Metal



[ Hidden Text ]