Help - Search - Members - Calendar
Full Version: The Birthday Party - Junkyard (1982)
Metal Area - Extreme Music Portal > Releases Area / Релизы > New Releases > Unformat R:
vam1972


*Artist: The Birthday Party
*Album: Junkyard
*Year: 1982
*Genre: Post-Punk
*Country: Australia
*Format: mp3@CBR320kbps
*Size: 107MB

Tracklist:
01 - Blast Off
02 - She's Hit
03 - Dead Joe
04 - The Dim Locator
05 - Hamlet (Pow, Pow, Pow)
06 - Several Sins
07 - Big-Jesus-Trash-Can
08 - Kiss Me Black
09 - 6 Gold Blade
10 - Kewpie Doll
11 - Junkyard
12 - Dead Joe (2nd version)
13 - Release the Bats
******************************
Total playing time: 48:10

Technical info

Input File: 01 - Blast Off.mp3
Channels : 2
Sample Rate : 44100
Precision : 16-bit
Duration : 00:02:23.02 = 6306962 samples = 10726.1 CDDA sectors
File Size : 5.89M
Bit Rate : 330k
Sample Encoding: MPEG audio (layer I, II or III)
Comments :
Title=Blast Off
Artist=The Birthday Party
Album=Junkyard
Tracknumber=1
Year=1982
Genre=Post Punk



[ Hidden Text ]
Ghostb
Обложки у них тогда были, конечно 1488.gif
vam1972
ЦИТАТА(Ghostb @ Oct 10 2019, 13:30:51) *
Обложки у них тогда были, конечно 1488.gif

Это точно! Не то, что потом "пасхальные открытки" на альбомах Bad Seeds.
[ Hidden Text ]
This is a "lo-fi" version of our main content. To view the full version with more information, formatting and images, please click here.
Invision Power Board © 2001-2020 Invision Power Services, Inc.