*Artist: Wolcensmen
*Album: Fire In The White Stone
*Year: 2019
*Genre: Neofolk
*Country: United Kingdom
*Format: mp3@CBR320kbps
*Size: 111MB

Tracklist:
1 Foreboden & a Gainsaying 5:23
2 Lorn and Loath 7:35
3 Hunted 4:21
4 The Woodwose 0:50
5 Of Thralls and Throes 5:12
6 The Swans of Gar's Edge 6:32
7 Maidens of the Rimeland 3:47
8 Fellowship 1:47
9 Sprig to Spear 5:42
10 Fire in the White Stone 8:26
******************************
Total playing time: 49:35



Technical info

Input File: 01 - Foreboden & A Gainsaying.mp3
Channels : 2
Sample Rate : 44100
Precision : 16-bit
Duration : 00:05:23.75 = 14277507 samples = 24281.5 CDDA sectors
File Size : 13.0M
Bit Rate : 320k
Sample Encoding: MPEG audio (layer I, II or III)
Comments :
Title=Foreboden & A Gainsaying
Artist=Wolcensmen
Album=Fire In The White Stone
Tracknumber=01
Year=2019
Genre=Neofolk



[ Hidden Text ]