Help - Search - Members - Calendar
Full Version: Deviate Damaen - In Sanctitate, Benignitatis Non Miseretur! (2019)
Metal Area - Extreme Music Portal > Releases Area / Релизы > Archive
necroscum


*Artist: Deviate Damaen
*Album: In Sanctitate, Benignitatis Non Miseretur!
*Year: 2019
*Genre: Extreme/Gothic Metal
*Country: Italy
*Format: mp3@CBR320kbps
*Size: 168MB

Tracklist:
01. L'angelo Preferito, Il Primo Insorto, Il Più Antico Dannato
02. Tethrus
03. Sacre Gesta Vavalcano Il Metallo / Heilige Taten Reiten Das Metall
04. Santo Frà Diavolo, Spara Per Noi!
05. Aspetterò L'altrove
06. I Tarocchi Della Vostra Sfiga
07. Font Near The Ossuary
08. Fratelli D'occidente, Salviamo Noi Stessi Dall'estinzione!
09. Signore E Dio In Te Confido
10. L'urlo Del Cappuccino
******************************
Total playing time: 1:13:05





Technical info

Input File: 02. Tethrus.mp3
Channels : 2
Sample Rate : 44100
Precision : 16-bit
Duration : 00:11:51.85 = 31392717 samples = 53389 CDDA sectors
File Size : 28.5M
Bit Rate : 321k
Sample Encoding: MPEG audio (layer I, II or III)
Comments :
Title=Tethrus
Artist=Deviate Damaen
Album=In sanctitate, benignitatis non miseretur!
Tracknumber=2/10
Year=2019
Genre=9
Discnumber=1/1



[ Hidden Text ]
Old Vyaine
Что-то похожее на музыку начинается только на третьем треке, а это уже 20+ минут. Впрочем, могло бы и не начинаться.
BlackArrow
ЦИТАТА(Old Vyaine @ Oct 12 2019, 15:00:12) *
Что-то похожее на музыку начинается только на третьем треке, а это уже 20+ минут. Впрочем, могло бы и не начинаться.

Да уж, интро почти на 10 минут, состоящее из бормотания на фоне органа - это мощно. Тэга авангард или экспериментал в стиле не хватает. Кстати в целом напомнило Samsas Traum/Adversus, только менее мелодично
This is a "lo-fi" version of our main content. To view the full version with more information, formatting and images, please click here.
Invision Power Board © 2001-2020 Invision Power Services, Inc.