Help - Search - Members - Calendar
Full Version: Opium Lord - Vore (2019)
Metal Area - Extreme Music Portal > Releases Area / Релизы > Archive > Low Bitrate Archive (read only)
Necrokilldozer


*Artist: Opium Lord
*Album: Vore
*Year: 2019
*Genre: Sludge/Doom Metal
*Country: United Kingdom
*Format: mp3@CBR128kbps
*Size: 38MB

Tracklist:
1.WWCD 03:45
2.Lead Magnet 05:39
3.Centurion 05:13
4.Suture 05:37
5.Cherwood Is Connector 05:44
6.Columbia (Featuring Mike Scheidt) 07:46
7.Gift 06:31
******************************
Total playing time: 40:15



Extended info
Line - up:

Neil - Bass (ex-Teat)
Bruce - Drums (The Dead at Sea)
Adam Beckley - Guitars
Luke Fewtrell - Guitars
Simon Blewitt - Guitars (Sealclubber, Empires of Light)
Nathan Coyle - Vocals



Technical info

Input File: 04 - Suture.mp3
Channels : 2
Sample Rate : 44100
Precision : 16-bit
Duration : 00:05:36.94 = 14859054 samples = 25270.5 CDDA sectors
File Size : 5.39M
Bit Rate : 128k
Sample Encoding: MPEG audio (layer I, II or III)
Comments :
Title=Suture
Artist=Opium Lord
Album=Vore
Tracknumber=4
Year=2019
Genre=Doom/Sludge Metal



[ Hidden Text ]
SAPOGi
This is a "lo-fi" version of our main content. To view the full version with more information, formatting and images, please click here.
Invision Power Board © 2001-2020 Invision Power Services, Inc.