Help - Search - Members - Calendar
Full Version: Soul Of Slamming - Rekonstruksi Dogma (2019)
Metal Area - Extreme Music Portal > Releases Area / Релизы > New Releases
Samaritianin


*Artist: Soul Of Slamming
*Album: Rekonstruksi Dogma
*Year: 2019
*Genre: Brutal Death Metal
*Country: Indonesia
*Format: mp3@CBR320kbps
*Size: 56MB

Tracklist:
01. Veiled The Thruth
02. Gelap Tak Bernyawa
03. Gelombang Kematian
04. Ilustrasi Peran Pembunuh
05. Penguasa Gila
06. Betrayal
07. Dogma
08. Halusinasi
******************************
Total playing time: 24:01



Extended info
Bobo Bass
Vivi Drums
Ricko Guitars
Deny Vocals
See also: ex-Sacred


Technical info

Input File: 04 Ilustrasi Peran Pembunuh.mp3
Channels : 2
Sample Rate : 44100
Precision : 16-bit
Duration : 00:03:04.07 = 8117575 samples = 13805.4 CDDA sectors
File Size : 7.46M
Bit Rate : 324k
Sample Encoding: MPEG audio (layer I, II or III)
Comments :
Title=Ilustrasi Peran Pembunuh
Artist=Soul Of Slamming
Album=Rekonstruksi Dogma
Tracknumber=4
Year=2019
Genre=Brutal Death Metal
Discnumber=1



[ Hidden Text ]
Dionis
твердый середняк. и без свиней!
This is a "lo-fi" version of our main content. To view the full version with more information, formatting and images, please click here.
Invision Power Board © 2001-2019 Invision Power Services, Inc.