Help - Search - Members - Calendar
Full Version: Windtower - The Eldest One (2019)
Metal Area - Extreme Music Portal > Releases Area / Релизы > New Releases > Unformat R:
amebix


*Artist: Windtower
*Album: The Eldest One
*Year: 2019
*Genre: Ambient/Dungeon Synth
*Country: Hungary
*Format: mp3@CBR320kbps
*Size: 60MB

Tracklist:
01. Age Of The Fallen Blades 05:16
02. A Dusty Spellbook Of Ancient Wizardry 05:43
03. Forgotten Melodies From Beyond The Abyssal Gate 05:38
04. The Eldest One 06:35
05. One Last Merry Night 03:48
******************************
Total playing time: 27:00



Technical info

Input File: 01 - Age Of The Fallen Blades.mp3
Channels : 2
Sample Rate : 44100
Precision : 16-bit
Duration : 00:05:17.00 = 13979876 samples = 23775.3 CDDA sectors
File Size : 12.7M
Bit Rate : 320k
Sample Encoding: MPEG audio (layer I, II or III)
Comments :
Title=Age Of The Fallen Blades
Artist=WINDTOWER
Album=The Eldest One
Tracknumber=1
Year=2019



[ Hidden Text ]
vosmidesijatye
Отличный величественный и проникновенный дунжн.

Релизы подобного жанра нам тащемта очень нужны на портале.
SSorcerer
Отличный образец Данж Синта 20.gif
This is a "lo-fi" version of our main content. To view the full version with more information, formatting and images, please click here.
Invision Power Board © 2001-2020 Invision Power Services, Inc.