Help - Search - Members - Calendar
Full Version: Chthonic Deity - Reassembled In Pain [demo] (2019)
Metal Area - Extreme Music Portal > Releases Area / Релизы > Archive > Low Bitrate Archive (read only)
Ambercandle


*Artist: Chthonic Deity
*Album: Reassembled In Pain [demo]
*Year: 2019
*Genre: Death Metal
*Country: United States
*Format: mp3@CBR320kbps
*Size: 30MB

Tracklist:
1. Drained 03:15
2. Disintegrating Organs 03:29
3. Echoes of Death 02:04
4. Blood Ritual 04:09
******************************
Total playing time: 12:57

Extended info
"Reassembled In Pain", the debut demo from CHTHONIC DEITY, contains four songs of energetic and heavy Death Metal/Punk from members of SCOLEX, ASCENDED DEAD and BLOOD INCANTATION. Released on tape by Lunar Tomb Records and 7" vinyl by Carbonized Records & Woodsmoke.


Technical info

Input File: Chthonic Deity - Blood Ritual.mp3
Channels : 2
Sample Rate : 48000
Precision : 16-bit
Duration : 00:04:09.17 = 11960208 samples ~ 18687.8 CDDA sectors
File Size : 9.97M
Bit Rate : 320k
Sample Encoding: MPEG audio (layer I, II or III)
Comments :
Title=Blood Ritual
Artist=Chthonic Deity
Album=Reassembled In Pain
Tracknumber=4
Year=2019



[ Hidden Text ]
Samaritianin
320 (CD-Rip) 36 mb
[ Hidden Text ]
This is a "lo-fi" version of our main content. To view the full version with more information, formatting and images, please click here.
Invision Power Board © 2001-2020 Invision Power Services, Inc.