Help - Search - Members - Calendar
Full Version: Sleeping Peonies - Glitterghast (2018)
Metal Area - Extreme Music Portal > Releases Area / Релизы > New Releases > Unformat R:
sundowning


*Artist: Sleeping Peonies
*Album: Glitterghast
*Year: 2018
*Genre: Blackgaze
*Country: United Kingdom
*Format: mp3@CBR320kbps
*Size: 61MB

Tracklist:
01. Rose Smog 02:15
02. Chamomile Hex 03:42
03. Deathswells 04:22
04. Sullen // Sulk 03:49
05. Soft Hands // Hard Hands 02:28
06. Drowning Yrself To Become The Sea 02:42
07. Bllurre 03:50
08. Salt & Sorrow 03:26
******************************
Total playing time: 26:34




Extended info
Sleeping Peonies is a shoegaze and screamo infused black metal project from the east coast of England. The album is about ghostliness and ghastliness. Self-released, 2018.


Technical info

Input File: 01. Rose Smog.mp3
Channels : 2
Sample Rate : 44100
Precision : 16-bit
Duration : 00:02:15.87 = 5991999 samples = 10190.5 CDDA sectors
File Size : 5.94M
Bit Rate : 350k
Sample Encoding: MPEG audio (layer I, II or III)
Comments :
Title=Rose Smog
Artist=Sleeping Peonies
Album=Glitterghast
Tracknumber=01
Year=2018



[ Hidden Text ]
abob
Одна песня у них нравится.

This is a "lo-fi" version of our main content. To view the full version with more information, formatting and images, please click here.
Invision Power Board © 2001-2020 Invision Power Services, Inc.