Help - Search - Members - Calendar
Full Version: Majeure - Mass Flashback (2019)
Metal Area - Extreme Music Portal > Releases Area / Релизы > New Releases > Unformat R:
vosmidesijatye


*Artist: Majeure
*Album: Mass Flashback
*Year: 2019
*Genre: Progressive Rock/Krautrock/Electronic
*Country: United States
*Format: mp3@CBR320kbps
*Size: 86MB

Tracklist:
1. Longing, Love, Loss 04:47
2. Mass Flashback 06:12
3. Prescience Acquired 04:26
4. Sundog Blues 07:32
5. Face Dancer 07:46
6. Universal Out 05:31
******************************
Total playing time: 36:14



Technical info

Input File: 1 - longing, love, loss.mp3
Channels : 2
Sample Rate : 44100
Precision : 16-bit
Duration : 00:04:47.00 = 12656700 samples = 21525 CDDA sectors
File Size : 12.1M
Bit Rate : 337k
Sample Encoding: MPEG audio (layer I, II or III)
Comments :
Title=Longing, Love, Loss
Artist=Majeure
Album=Mass Flashback
Tracknumber=1
Genre=Electro
Discnumber=1



[ Hidden Text ]
vosmidesijatye
Волшебной красоты альбом pray.gif
kessler
...уже удалённый
babanguida
QUOTE(kessler @ Nov 10 2019, 12:26:02) *
...уже удалённый

link works fine
This is a "lo-fi" version of our main content. To view the full version with more information, formatting and images, please click here.
Invision Power Board © 2001-2020 Invision Power Services, Inc.