Help - Search - Members - Calendar
Full Version: Iapetus - The Body Cosmic (2019)
Metal Area - Extreme Music Portal > Releases Area / Релизы > Archive
Necrokilldozer


*Artist: Iapetus
*Album: The Body Cosmic
*Year: 2019
*Genre: Melodic/Progressive Extreme Metal
*Country: United States
*Format: mp3@CBR320kbps
*Size: 168MB

Tracklist:
1.The Body Cosmic 09:58
2.Dark Matter Genetics 02:00
3.I Contain Multitudes 14:31
4.Galaxy Collective 02:09
5.For Creatures Such as We 12:56
6.Hadean Heart 04:54
7.Moonwatcher 02:06
8.The Star of Collapse 18:00
9.Angelus Novus 03:39
******************************
Total playing time: 1:10:13



Extended info
Line - up:

Jordan Navarro - Guitars, Keyboards, Drum programming
Matthew Cerami - Guitars, Vocals, Bass



Technical info

Input File: 01 - The Body Cosmic.mp3
Channels : 2
Sample Rate : 44100
Precision : 16-bit
Duration : 00:09:59.00 = 26415812 samples = 44924.9 CDDA sectors
File Size : 24.0M
Bit Rate : 320k
Sample Encoding: MPEG audio (layer I, II or III)
Comments :
Title=The Body Cosmic
Artist=iapetus
Album=The Body Cosmic
Tracknumber=01
Year=2019
Genre=Melodic/Progressive Extreme Metal



[ Hidden Text ]
MeatWolf
Что-то среднее между Insomnium, Agalloch и Wintersun с эпичными полотнами на 10-15 минут. Один из крайне редких случаев, когда американцы смогли в почти по-фински мелодичную музыку. Сведение и мастеринг в Fascination Street сказались на результате крайне положительно. С первого раза я мало что понял, но некоторое количество космических мелодий определённо было обнаружено. Исследования будут продолжены.
Lucifer
ЦИТАТА(MeatWolf @ 9th November 2019 - 22:21:20) *
среднее между Insomnium, Agalloch и Wintersun с эпичными полотнами на 10-15 минут.

ЦИТАТА(MeatWolf @ 9th November 2019 - 22:21:20) *
я мало что понял, но некоторое количество космических мелодий определённо было обнаружено

Придется теперь качать и слушать.
Slam91
Стянул, включил первую песню. Пожалуй, послушаю альбом.
MeatWolf
Первый трек вообще показался самым насыщенным и интересным.
Ghostb
ЦИТАТА(Lucifer @ Nov 9 2019, 14:46:32) *
Придется теперь качать и слушать

Угу.

ЦИТАТА(MeatWolf @ Nov 9 2019, 14:21:20) *
Сведение и мастеринг в Fascination Street сказались на результате крайне положительно

Тоже сыграло свою роль (космические мелодии, в том числе).
kryuger
А мне Ne Obliviscaris напомнили.
MeatWolf
ЦИТАТА(kryuger @ 11th November 2019 - 12:08:25) *
А мне Ne Obliviscaris напомнили.

Тут ударник их играет.
скептик
претендент на топ 5 этого года у меня 20.gif
Ghostb
Приятный материал, но каких-то особых восторгов не вызывает. Несмотря на приличную продолжительность треков, некоторые отрезки грешат однообразием и даже предсказуемостью, но хорошие мелодии также в наличии (правда, в недостаточном для меня количестве). Инструментальные вещи в итоге понравились больше всего.
Old Vyaine
QUOTE(Necrokilldozer @ 9th November 2019 - 09:41:25) *
5.For Creatures Such as We 12:56


Просто огнище, а поначалу альбом казался плюшевым Винтерсаном (да, попахивает тавтологией). Но зажгли так зажгли, тут и Саор нелишне вспомнить.
Dreamtale
Прогрессивная составляющая понравилась, остальное шаблонно. Как вы тут финнов смогли усмотреть, я вообще хз.
MeatWolf
ЦИТАТА(Ghostb @ 13th November 2019 - 01:20:45) *
некоторые отрезки грешат однообразием

Наверное, это как раз то, что я называю белакоровскими риффами.

В итоге альбом уверенно отправляется в топ, даже проговая I Contain Multitudes слушается без проблем, а уж первый и последний эпики это просто услада для ушей. Но больше всего меня порализа Hadean Heart, наверное, лучшая мелодия, что я слышал в этом году, это просто восторг.
Mplast
Ghostb
ЦИТАТА(MeatWolf @ Nov 24 2019, 16:26:07) *
Наверное, это как раз то, что я называю белакоровскими риффами

К ним та же претензия имеется.

ЦИТАТА(MeatWolf @ Nov 24 2019, 16:26:07) *
больше всего меня порализа Hadean Heart, наверное, лучшая мелодия, что я слышал в этом году, это просто восторг

Красиво, да, тоже для себя отметил.
DenisKov
ИМХО скучный и затянутый альбом, есть приятные моменты, но не более, в целом атмосфера не цепляет совершенно.
Old Vyaine
Почитал тексты.

headcrab.png
Metalass
Очень даже хороший альбом. Очень напомнили упомянутых тут австралийцев не-разлей-вискарик, вы быту Ne Obliviscaris.
И учитывая не шибко высокое качество последних работ последних, тут еще можно поспорить, чьи последние альбомы лучше.
Местами подкачивает вокал, на третьем трэке режет глаза.
Заходит альбом не всегда.
И можно сказать, что слишком продолжительный.
На этом минусы заканчиваются, т.к. альбом дико хорош, материал тут весьма крут. Структура альбома довольно прикольная и не дает заскучать, иногда переходы такие плавные, что их даже не замечаешь.
This is a "lo-fi" version of our main content. To view the full version with more information, formatting and images, please click here.
Invision Power Board © 2001-2020 Invision Power Services, Inc.