Help - Search - Members - Calendar
Full Version: The Vth Circle - I (2019)
Metal Area - Extreme Music Portal > Releases Area / Релизы > Archive
Samaritianin


*Artist: The Vth Circle
*Album: I
*Year: 2019
*Genre: Melodic Death Metal
*Country: Canada
*Format: mp3@CBR320kbps
*Size: 92MB

Tracklist:
1. The River 02:30
2. Idyllica 06:43
3. Oceans 04:40
4. The Storm 02:18
5. Rotter 05:59
6. Islands 04:10
7. Reborn 05:58
8. And the Waves Came Rolling In... 02:00
9. The Standoff 05:31
******************************
Total playing time: 39:49




Extended info
Nikki Gould Bass
See also: War Boar, ex-Kymatica
Ramil Abad Drums
See also: Demiurge
Dave Keske Guitars
Mike Watson Guitars
Jordan Kinicki Vocals


Technical info

Input File: 03 - Oceans.mp3
Channels : 2
Sample Rate : 44100
Precision : 16-bit
Duration : 00:04:40.52 = 12370844 samples = 21038.9 CDDA sectors
File Size : 11.3M
Bit Rate : 323k
Sample Encoding: MPEG audio (layer I, II or III)
Comments :
Title=Oceans
Artist=The Vth Circle
Album=I
Tracknumber=3
Year=2019-11-16
Discnumber=1



[ Hidden Text ]
SnaP
вообще не мдм, ужасная альтернатива с металкором
DenisKov
Тут даже любители оценивать музыку по облоге не ошибутся.
This is a "lo-fi" version of our main content. To view the full version with more information, formatting and images, please click here.
Invision Power Board © 2001-2020 Invision Power Services, Inc.