Help - Search - Members - Calendar
Full Version: Две Тысячи Крестов - Душно [ep] (2019)
Metal Area - Extreme Music Portal > Releases Area / Релизы > Archive
Forest Silence


*Artist: Две Тысячи Крестов
*Album: Душно [ep]
*Year: 2019
*Genre: Melodic Black Metal
*Country: Russian Federation
*Format: mp3@CBR320kbps
*Size: 31MB

Tracklist:
1. Intro 1:34
2. Душно 4:16
3. Никто Из Вас Здесь Не Был 5:23
4. Outro 1:39
******************************
Total playing time: 12:52



Technical info

Input File: 02. Душно.mp3
Channels : 2
Sample Rate : 44100
Precision : 16-bit
Duration : 00:04:15.91 = 11285719 samples = 19193.4 CDDA sectors
File Size : 10.4M
Bit Rate : 326k
Sample Encoding: MPEG audio (layer I, II or III)
Comments :
Title=Душно
Artist=Две Тысячи Крестов
Album=Душно
Tracknumber=2
Year=2019
Genre=Melodic Black Metal



[ Hidden Text ]
Sanctus
Музыка определённо заслуживает внимания.
Понравился сопроводительный текст:

"Повесть о лёгких наркотических средствах, приём которых, зачастую приводит, цитирую: «в зону медленного снегопада»,и конечно же, к Абстинентному синдрому, который возникает при полном прекращении приема психоактивного вещества. Но гораздо хуже, когда с этим веществом перебор, а скорая помощь, как назло опаздывает или, вовсе, не приезжает. Отъехал в лесопарковой зоне, под деревом и попал туда, где никто из нас не был.".
Foneg
И вправду круто.
Год релиза только 2016, а не 2019
Evilded
Anti-drugs clan - звучит даже поганее, чем если бы было Lyrical themes christianity ((
автор этих испражнений, если ты это читаешь, то внемли здравому совету - в никнейме после Х поставь долгожданную S, и вот, все встало на свои места, и вуаля, теперь ты не названный палач, а закономерная канцелярская крыса, и пиши в стол, не позорься.bye.gif
vosmidesijatye
ЦИТАТА(Evilded @ Nov 20 2019, 10:45:54) *
Anti-drugs clan - звучит даже поганее, чем если бы было Lyrical themes christianity ((


dooo.gif

Да тут уже по названию группы и обложки все понятно.

Нахрен вообще такое шротчяанство качать и слушать.
This is a "lo-fi" version of our main content. To view the full version with more information, formatting and images, please click here.
Invision Power Board © 2001-2020 Invision Power Services, Inc.