Help - Search - Members - Calendar
Full Version: Dispyria - The Journey To Aelyrea (2019)
Metal Area - Extreme Music Portal > Releases Area / Релизы > New Releases
Andrew


*Artist: Dispyria
*Album: The Journey To Aelyrea
*Year: 2019
*Genre: Heavy Metal
*Country: Germany
*Format: mp3@CBR320kbps
*Size: 117MB

Tracklist:
01. The Queens Garden
02. Here I Am
03. 5 2 12
04. Supernova
05. Virus
06. The Flame
07. Twister
08. Tears of an Angel
09. Aelyrea
10. Mind Over Matter
11. The Abyss
******************************
Total playing time: 50:53




Technical info

Input File: 02 - Here I Am.mp3
Channels : 2
Sample Rate : 44100
Precision : 16-bit
Duration : 00:04:00.11 = 10588719 samples = 18008 CDDA sectors
File Size : 9.61M
Bit Rate : 320k
Sample Encoding: MPEG audio (layer I, II or III)
Comments :
Title=Here I Am
Artist=Dispyria
Album=The Journey To Aelyrea
Tracknumber=2
Year=2019
Genre=Metal
Discnumber=1



[ Hidden Text ]
AHBAnep

Рок-опера одного из основателей Superior
Ни разу не хэви.
Samaritianin
ЦИТАТА(AHBAnep @ 2nd December 2019 - 07:39:37) *
Ни разу не хэви.

хард роковая оперетта)))
zauber1
Обычно мне нравятся вокальные м+ж дуэты, но тут вообще всё очень плохо. smile2.gif
This is a "lo-fi" version of our main content. To view the full version with more information, formatting and images, please click here.
Invision Power Board © 2001-2020 Invision Power Services, Inc.