*Artist: Mara
*Album: Rök
*Year: 2019
*Genre: Black Metal
*Country: Sweden
*Format: mp3@CBR320kbps
*Size: 83MB

Tracklist:
1. Bloodbound 07:28
2. RÖK 04:32
3. The Path 06:49
4. Eitr 08:49
5. Burial Mound 08:16
******************************
Total playing time: 35:54


Preview 2


Extended info
Vindsval Everything



Technical info

Input File: 03. The Path.mp3
Channels : 2
Sample Rate : 44100
Precision : 16-bit
Duration : 00:06:49.50 = 18058730 samples = 30712.1 CDDA sectors
File Size : 16.6M
Bit Rate : 324k
Sample Encoding: MPEG audio (layer I, II or III)
Comments :
Title=The Path
Artist=Mara
Album=Rök
Tracknumber=3
Year=2019-12-03
Discnumber=1



[ Hidden Text ]