Help - Search - Members - Calendar
Full Version: Dirty Grave - Sin After Death (2019)
Metal Area - Extreme Music Portal > Releases Area / Релизы > Archive
Samaritianin


*Artist: Dirty Grave
*Album: Sin After Death
*Year: 2019
*Genre: Doom Metal
*Country: Brazil
*Format: mp3@CBR320kbps
*Size: 120MB

Tracklist:
1. In This Night 08:07
2. Slaughter (Human Race Is Dead) 05:26
3. Turn Off All My Fears 06:33
4. Lord of Pain 03:52
5. Satan's Wings II (I Saw the Devil) 05:00
6. Disposable Toys 04:14
7. Slow Journey 06:19
8. When Lucifer Touches Your Soul 09:39
******************************
Total playing time: 49:10




Extended info
Henrique Lima Drums
Mark Rainbow Bass, Vocals
Pedro Barros Guitars
Victor Berg Guitars


Technical info

Input File: 03 - Turn Off All My Fears.mp3
Channels : 2
Sample Rate : 44100
Precision : 16-bit
Duration : 00:06:33.53 = 17354673 samples = 29514.8 CDDA sectors
File Size : 16.9M
Bit Rate : 344k
Sample Encoding: MPEG audio (layer I, II or III)
Comments :
Title=Turn Off All My Fears
Artist=Dirty Grave
Album=Sin After Death
Tracknumber=3
Year=2019



[ Hidden Text ]
Leshiy666
Добротный альбом, винтаж стайл, Саббаты + Пентаграмм, 70-ые форэва!! metaler.gif
Дебютник у них помню был как то не особый, а вот этот второй прям УХ, порадовали бразильцы, однозначно порадовали!! metaler.gif
russ777
Таки да,соглашусь с предыдущим оратором- альбом шикарен ! pray.gif
Релизёру вери сенкс!! 9.gif 9.gif
vosmidesijatye
Приятно, но лучше Саббат 100500й раз переслушать.
russ777
ЦИТАТА(vosmidesijatye @ 14th December 2019 - 13:00:44) *
Приятно, но лучше Саббат 100500й раз переслушать.

Таки не соглашусь. Саббату-саббатово , а молодые таланты тоже достойны внимания . genius.gif
P.S. - и ещё бонус : в тегах прописаны тексты песен , что может быть интересно знающим/изучающим инглиш ... smile1.gif
russ777
ЦИТАТА(Leshiy666 @ 11th December 2019 - 18:08:51) *
Дебютник у них помню был как то не особый,

А за какой дебютник речь ? Альбом 17-го года, "Evil Desire ", очешуителен !! pray.gif metaler.gif
Ice Gnoll
Присоединяюсь. Просто офигенно! 20.gif
This is a "lo-fi" version of our main content. To view the full version with more information, formatting and images, please click here.
Invision Power Board © 2001-2020 Invision Power Services, Inc.