Help - Search - Members - Calendar
Full Version: Obsessor - Obsession Collection [compilation] (2013)
Metal Area - Extreme Music Portal > Releases Area / Релизы > New Releases > Lossless
canadaspaceman


*Artist: Obsessor
*Album: Obsession Collection [compilation]
*Year: 2013
*Genre: Thrash Metal/Crossover/Punk
*Country: United States
*Format: mp3@CBR320kbps
*Size: 52MB

Tracklist:
1. Obsession 02:57
2. Underworld 02:17
3. Sick Salvation 02:53
4. The Demon 02:12
5. In Fear of the End 02:58
6. Aftershock 02:56
7. Mental Hell 02:35
8. Evil Supremacy 03:07
******************************
Total playing time: 21:55

Extended info
Similar Artists
- Toxic Holocaust United States Speed/Thrash/Black Metal
- Municipal Waste United States Thrash Metal/Crossover
- English Dogs United Kingdom Hardcore Punk/Speed/Power Metal/Crossover
- Broken Bones United Kingdom Thrash Metal/Crossover/Hardcore Punk

https://www.metal-archives.com/albums/Obses...llection/382957

USA (Richmond, Virginia)

Collection of previously released singles. Remastered.

Release date: July 9th, 2013
Catalog ID: TC66
Version: Limited edition
Label: Tankcrimes
Format: 12" vinyl (45 RPM)
Limitation: 500 copies


Technical info

Input File: Obsessor - Obsession Collection - 01 Obsession.mp3
Channels : 2
Sample Rate : 44100
Precision : 16-bit
Duration : 00:02:57.12 = 7810948 samples = 13283.9 CDDA sectors
File Size : 7.41M
Bit Rate : 335k
Sample Encoding: MPEG audio (layer I, II or III)
Comments :
Title=Obsession
Artist=Obsessor
Album=Obsession Collection
Tracknumber=1
Year=2013



[ Hidden Text ]
canadaspaceman
Obsessor - Obsession Collection ALAC 168.0 MB [ Hidden Text ]
Obsessor - Obsession Collection AAC. 25.4 MB [ Hidden Text ]
Obsessor - Obsession Collection (.ogg) 32.7 MB [ Hidden Text ]
This is a "lo-fi" version of our main content. To view the full version with more information, formatting and images, please click here.
Invision Power Board © 2001-2020 Invision Power Services, Inc.