Help - Search - Members - Calendar
Full Version: Дмитрий Ревякин - #снегпеченег (2019)
Metal Area - Extreme Music Portal > Releases Area / Релизы > New Releases > Unformat R:
VLADISLAV_V_K


*Artist: Дмитрий Ревякин
*Album: #снегпеченег
*Year: 2019
*Genre: Folk Rock
*Country: Russian Federation
*Format: mp3@CBR320kbps
*Size: 109MB

Tracklist:
1. Топи зеркал 4:55
2. Апокрифы 3:48
3. Пёс 3:00
4. Снег-печенег 5:42
5. Анархо beat 3:12
6. Плиты 3:58
7. Ангел 2:28
8. Поискать 3:35
9. Держать удар 3:54
10. Рецепторы 4:10
11. Лыжи да салазки (Antifemina) 3:28
12. Жги, сибиряк! 4:08
******************************
Total playing time: 46:18

Preview 1

Extended info


Дмитрий Ревякин представил на CD свой новый сольный альбом «Снег-Печенег».

«Года два назад мы с гитаристом Александром Бадажковым выпустили экспериментальную пластинку — мой сольный альбом «Змееборец». И вот за это время у меня собрался цикл песен, и мы решили опять обратится к нашему совместному творчеству.

«Снег-печенег» получился более песенным. В нем нет таких экспериментов, как декламация или жесткая музыка. Это гитарная работа, надеюсь, что она всем очень понравится».


В буклете сольника разместили стихи Дмитрия Ревякина и благодарность всем, кто участвовал в создании альбома, в том числе – через краудфандинг.


Technical info

Input File: 01-Топи зеркал.mp3
Channels : 2
Sample Rate : 44100
Precision : 16-bit
Duration : 00:04:55.96 = 13051836 samples = 22197 CDDA sectors
File Size : 11.8M
Bit Rate : 320k
Sample Encoding: MPEG audio (layer I, II or III)
Comments :
Title=Топи зеркал
Artist=Дмитрий Ревякин
Album=#снегпеченег
Tracknumber=1
Year=2019
Genre=Rock



[ Hidden Text ]
VLADISLAV_V_K
FLAC tracks
[ Hidden Text ]
Mplast
ЦИТАТА
«Снег-печенег» получился более песенным. В нем нет таких экспериментов, как декламация или жесткая музыка."

"Змееборец" мне был интересен как раз экспериментами, зачастую довольно удачными. К сожалению, большинство наших возрастных рокеров без этого звучат все более и более грустно.. Послушаю "более песенный" сольник.
Язва
При всем моём уважении и любви к Диме этот альбом я не оставлю в личной коллекции.. б/о
This is a "lo-fi" version of our main content. To view the full version with more information, formatting and images, please click here.
Invision Power Board © 2001-2020 Invision Power Services, Inc.