Help - Search - Members - Calendar
Full Version: Simm - Visitor (2013)
Metal Area - Extreme Music Portal > Releases Area / Релизы > New Releases > Unformat R:
as71


*Artist: Simm
*Album: Visitor
*Year: 2013
*Genre: Illbient/Dub/Industrial
*Country: Italy
*Format: mp3@CBR320kbps
*Size: 128MB

Tracklist:
01. Leatherface 05:39
02. Visitor 05:58
03. The Wind Is Blowing 06:28
04. Crematorium 05:42
05. Revenge Is Faith 04:22
06. The Sadness Of Things 06:00
07. Herezie 04:56
08. Retribution 05:28
09. Sky Eater 06:08
10. Sparse Ashes 05:17
******************************
Total playing time: 56:03



Extended info
Отличный illbient/ambient dub от известнейшего итальянского индустриальщика Eraldo Bernocchi. В духе Scorn, Equations Of Eternity и прочих дабовых проектов Мика Харриса, но со своей изюминкой.


Technical info

Input File: 01 - Leatherface.mp3
Channels : 2
Sample Rate : 44100
Precision : 16-bit
Duration : 00:05:39.51 = 14972347 samples = 25463.2 CDDA sectors
File Size : 13.6M
Bit Rate : 320k
Sample Encoding: MPEG audio (layer I, II or III)
Comments :
Title=Leatherface
Artist=SIMM
Album=Visitor
Tracknumber=01
Year=2013
Genre=Industrial/Ambient Dub/Illbient



[ Hidden Text ]
as71
В неформат это надо бы переместить...
Infidel
Годно.
as71
По итогам недавнего переслушивания всех трех альбомов проекта, этот я бы поставил на последнее место. Лучший - дебютник, вторым в моей иерархии, несмотря на его чрезмерный заход на территорию хип-хопа, идет прошлогодний альбом, а этот только третий. Но альбом, тем не менее, действительно годный.
xax
Первый дебютник, конечно, вне конкуренции и на все времена. Второй и третий где-то на одном уровне у меня, но всеравно люблю все.
This is a "lo-fi" version of our main content. To view the full version with more information, formatting and images, please click here.
Invision Power Board © 2001-2023 Invision Power Services, Inc.