*Artist: Paint The Sky Red
*Album: There Is A Tomorrow You Don't Know
*Year: 2019
*Genre: Post-Rock
*Country: Singapore
*Format: mp3@CBR320kbps
*Size: 81MB

Tracklist:
1.A Light For Every Shadow 06:50
2.Amber 05:08
3.With Those Whom You Love 06:33
4.Every Breath is a Gift 07:19
5.Moments in Between 09:17
******************************
Total playing time: 35:07



Technical info

Input File: 02 - Amber.mp3
Channels : 2
Sample Rate : 44100
Precision : 16-bit
Duration : 00:05:09.07 = 13630163 samples = 23180.5 CDDA sectors
File Size : 12.4M
Bit Rate : 321k
Sample Encoding: MPEG audio (layer I, II or III)
Comments :
Title=Amber
Artist=Paint The Sky Red
Album=There Is A Tomorrow You Don't Know
Tracknumber=2/5
Year=2019
Genre=Post-Rock



[ Hidden Text ]