Help - Search - Members - Calendar
Full Version: Монгол Шуудан - Гуляй Поле Реанимация (2020)
Metal Area - Extreme Music Portal > Releases Area / Релизы > New Releases > Unformat R:
Samaritianin


*Artist: Монгол Шуудан
*Album: Гуляй Поле Реанимация
*Year: 2020
*Genre: Punk Rock
*Country: Russian Federation
*Format: mp3@CBR320kbps
*Size: 127MB

Tracklist:
01. Intro
02. Гуляй Поле
03. На Белом Коне
04. Свобода Или Смерть
05. Песня Белого Анархиста
06. Дальняя Дорога
07. А В Нагане
08. Налёт
09. Знамёна
10. 18
11. Балалаечка
12. Вольная Песня
13. Целка
14. Правая Победа
15. Атака
16. Любо, Братцы, Любо
******************************
Total playing time: 53:54

Preview 1


Extended info
Переиздание в новом звучании альбома "Гуляй Поле"
Valery Skoroded - the group leader, Sergey Kruchkov - guitar, Alexei Bykov (ex - "Metal Corrosion," "Iron Marsh") - drums and Vyacheslav Yadrikov - bass guitar.




Technical info

Input File: 04. Свобода Или Смерть.mp3
Channels : 2
Sample Rate : 44100
Precision : 16-bit
Duration : 00:04:09.62 = 11008110 samples = 18721.3 CDDA sectors
File Size : 10.2M
Bit Rate : 328k
Sample Encoding: MPEG audio (layer I, II or III)
Comments :
Title=Свобода Или Смерть
Artist=Монгол Шуудан
Album=Гуляй Поле Реанимация
Tracknumber=4
Year=2020-01-05
Discnumber=1



[ Hidden Text ]
Immolator
Собачья чушь все равно круче, как не извращайся и не утяжеляйся. Добавлю. Дальнюю дорогу засрали оригинал круче.
DMIYUR
Ну и нафига ? Вот нахрена надо было это делать ?
hammer
ЦИТАТА(DMIYUR @ Jan 5 2020, 19:16:18) *
Ну и нафига ? Вот нахрена надо было это делать ?

Да в старом варианте - уныло оно все.А тут весело. bye.gif
vosmidesijatye
ЦИТАТА(hammer @ Jan 5 2020, 21:31:13) *
Да в старом варианте - уныло оно все.А тут весело. bye.gif


Любиш ты экзотические ряшения и нетривиальные прачтения 1488.gif
Язва
ЦИТАТА(DMIYUR @ Jan 5 2020, 20:16:18) *
Ну и нафига ? Вот нахрена надо было это делать ?

теперь послушаю bye.gif
wanderer73
О,Валера точно уберёт уныние после прослушивания похоронки Rage))
Mick Dundee
а мне нравиццо,они всё равно на концертах сейчас играют полное рубилово,так что и эти реинкарнации заходят. при этом старые,аутентичные версии не теряют своего шарма и крутости.
Mplast
ЦИТАТА(DMIYUR @ Jan 5 2020, 20:16:18) *
Ну и нафига ? Вот нахрена надо было это делать ?

Для меня, например)
Интерес к группе появился только с альбома 2011 года. До этого как-то не торкали.
Кстати, чтобы нигде не копаться, с чем/кем связана такая резкая музыкальная перемена у МШ?
Mick Dundee
ЦИТАТА(Mplast @ Feb 19 2020, 21:51:35) *
Для меня, например)
Интерес к группе появился только с альбома 2011 года. До этого как-то не торкали.
Кстати, чтобы нигде не копаться, с чем/кем связана такая резкая музыкальная перемена у МШ?

Возможно из-за смены состава,особенно с приходом гитариста Сергея Крючкова. Но факт в том,что с его появлением МШ очень сильно утяжелился, хотя это надо у Скородеда узнавать,мастермайнд он.
Aresson
ЦИТАТА(Mplast @ 19th February 2020 - 21:51:35) *
Для меня, например)

+1. Я не уверен, что я слышал хоть что-то из раннего, но вот эти вот металлизированые (если можно так выразится) перепевки старых песен послушал не без удовольствия.
Да и с текстов поугарал
hammer
ЦИТАТА(Mplast @ Feb 19 2020, 20:51:35) *
Для меня, например)
Интерес к группе появился только с альбома 2011 года. До этого как-то не торкали.

+1
This is a "lo-fi" version of our main content. To view the full version with more information, formatting and images, please click here.
Invision Power Board © 2001-2020 Invision Power Services, Inc.