Help - Search - Members - Calendar
Full Version: Whoredom Rife Emissary - Vinternatt [ep] (2019)
Metal Area - Extreme Music Portal > Releases Area / Релизы > New Releases > Unformat R:
Samaritianin


*Artist: Whoredom Rife Emissary
*Album: Vinternatt [ep]
*Year: 2019
*Genre: Neofolk
*Country: Norway
*Format: mp3@CBR320kbps
*Size: 36MB

Tracklist:
1. Vinternatt 04:19
2. Spir (Acoustic) 03:20
3. Beyond the Skies of God (Acoustic) 04:56
4. Solverv 02:57
******************************
Total playing time: 15:32





Extended info
Today is winter solstice, the darkest night of the year.
We appropriately present Emissary, a sub-project under the banner of Whoredom Rife.
The aim is to display a more low-key side to the band, and to appeal to the listener in a different way. The idea is that both projects can interact with eachother, yet stand on their own.
As the name suggests, Emissary is a solo project on behalf of Whoredom Rife, but with the same names and ideas involved.

So without further ado, let's celebrate reality and the return of the sun.

V. Einride All instruments
See also: From the Vastland (live), Gorgoroth (live), Vemod (live), ex-Headspin, ex-Aptorian Demon, ex-Chton, ex-Goat the Head, ex-Keep of Kalessin, ex-Noctiluca
K.R Vocals
See also: ex-Bloodthorn, ex-Noctiluca


Technical info

Input File: 01 - Vinternatt.mp3
Channels : 2
Sample Rate : 44100
Precision : 16-bit
Duration : 00:04:20.04 = 11467764 samples = 19503 CDDA sectors
File Size : 10.5M
Bit Rate : 323k
Sample Encoding: MPEG audio (layer I, II or III)
Comments :
Title=Vinternatt
Artist=Whoredom Rife
Album=Vinternatt
Tracknumber=1
Year=2019-12-22
Genre=Alternative; Indie Pop; Indie Rock
Discnumber=1



[ Hidden Text ]
squall8fr
For those who wonder :
QUOTE
.:Whoredom Rife Emissary:.

Today is winter solstice, the darkest night of the year.
We appropriately present Emissary, a sub-project under the banner of Whoredom Rife.
The aim is to display a more low-key side to the band, and to appeal to the listener in a different way. The idea is that both projects can interact with eachother, yet stand on their own.
As the name suggests, Emissary is a solo project on behalf of Whoredom Rife, but with the same names and ideas involved.

So without further ado, let's celebrate reality and the return of the sun.

V.
Daale
Перенес в оффтоп. Нужно было заранее отмодерить релиз и поменять. В коллекции лежит давно купленный.
Wizard_SS
Очень приятный нордический фолк! Чем то напомнил Квельдсангер Ульвера только менее меланхоличный
This is a "lo-fi" version of our main content. To view the full version with more information, formatting and images, please click here.
Invision Power Board © 2001-2020 Invision Power Services, Inc.