*Artist: Foo Fighters
*Album: 00959525 [ep]
*Year: 2020
*Genre: Alternative Rock/Grunge
*Country: United States
*Format: mp3@CBR320kbps
*Size: 60MB

Tracklist:
01. Winnebago
02. Podunk
03. How I Miss You
04. Ozone
05. Floaty (Live at BBC Evening Session, London, UK – November 1995)
06. Alone + Easy Target (Live at BBC Evening Session, London, UK – November 1995)
******************************
Total playing time: 26:12






Technical info

Input File: 02. Podunk.mp3
Channels : 2
Sample Rate : 44100
Precision : 16-bit
Duration : 00:03:03.86 = 8108358 samples = 13789.7 CDDA sectors
File Size : 7.49M
Bit Rate : 326k
Sample Encoding: MPEG audio (layer I, II or III)
Comments :
Title=Podunk
Artist=Foo Fighters
Album=00959525
Tracknumber=2/6
Year=2020
Genre=17
Discnumber=1/1



[ Hidden Text ]