Help - Search - Members - Calendar
Full Version: Blackmole - Ghost (2017)
Metal Area - Extreme Music Portal > Releases Area / Релизы > New Releases > Unformat R:
as71


*Artist: Blackmole
*Album: Ghost
*Year: 2017
*Genre: Dark Jazz
*Country: Russian Federation
*Format: mp3@CBR320kbps
*Size: 118MB

Tracklist:
01. It's All In The Past 03:01
02. Failure 04:10
03. Desolation 06:02
04. Drowning 02:52
05. Disengaged 04:36
06. Refuse 03:50
07. Interlude I 01:51
08. Anxiety 06:12
09. Withering 03:34
10. Weakling 03:39
11. Interlude II 02:13
12. Nowhere 04:26
13. Ghost 03:28
******************************
Total playing time: 49:55




Extended info
recorded in 2012 - 2017


Technical info

Input File: 02 - Failure.mp3
Channels : 2
Sample Rate : 44100
Precision : 16-bit
Duration : 00:04:10.48 = 11046124 samples = 18785.9 CDDA sectors
File Size : 10.1M
Bit Rate : 324k
Sample Encoding: MPEG audio (layer I, II or III)
Comments :
Title=Failure
Artist=Blackmole
Album=Ghost
Tracknumber=02
Year=2017
Genre=Dark Jazz



[ Hidden Text ]
ZloY_GreY
Их обманули, когда сказали, что они dark jazz. Они - печальная херня, а не dark jazz.
This is a "lo-fi" version of our main content. To view the full version with more information, formatting and images, please click here.
Invision Power Board © 2001-2020 Invision Power Services, Inc.