Help - Search - Members - Calendar
Full Version: G.I.S.M - Detestation (1984)
Metal Area - Extreme Music Portal > Releases Area / Релизы > New Releases > Unformat R:
atom72


*Artist: G.I.S.M
*Album: Detestation
*Year: 1984
*Genre: Metal Punk
*Country: Japan
*Format: mp3@CBR320kbps
*Size: 68MB

Tracklist:
1. Endless Blockads For The Pussyfooter 1
2. Death Agohies And Screams
3. A.B.C. Weapons
4. Nih Nightmare
5. Document One
6. (Tere Their) Syphilitic Vaginas To Pieces
7. Nuclear Armed Hogs
8. Anthem
9. Hidden At 12 Min 49 Sec.
******************************
Total playing time: 1:06:00



Technical info

Input File: 01 Endless Blockades for the Pussyfooter 1.mp3
Channels : 2
Sample Rate : 44100
Precision : 16-bit
Duration : 00:03:45.68 = 9952400 samples = 16925.9 CDDA sectors
File Size : 9.06M
Bit Rate : 321k
Sample Encoding: MPEG audio (layer I, II or III)
Comments :
Title=Endless Blockades for the Pussyfooter
Artist=G.I.S.M.
Album=DeTesTaTioN
Tracknumber=1
Genre=PunkNotProfit



[ Hidden Text ]
abob
В 2015 вышла сборка Determination, в основном ее и слушаю, там этот альбом плюс треки с разных компиляций, иными словами самое крутое, что было у группы. Дальше по настроению.
This is a "lo-fi" version of our main content. To view the full version with more information, formatting and images, please click here.
Invision Power Board © 2001-2020 Invision Power Services, Inc.