Help - Search - Members - Calendar
Full Version: Brånd & Häxenzijrkell - Seis Wies Sei/Der Totenrijtt [split] (2020)
Metal Area - Extreme Music Portal > Releases Area / Релизы > Archive
lestllk


*Artist: Brånd & Häxenzijrkell
*Album: Seis Wies Sei/Der Totenrijtt [split]
*Year: 2020
*Genre: Raw Black Metal | Black Metal
*Country: Austria | Germany
*Format: mp3@CBR320kbps
*Size: 33MB

Tracklist:
Brånd:
1. Seis wies Sei 06:56
Häxenzijrkell:
2. Der Totenrijtt 07:06
******************************
Total playing time: 14:02




Technical info

Input File: 02. Häxenzijrkell - Der Totenrijtt.mp3
Channels : 2
Sample Rate : 44100
Precision : 16-bit
Duration : 00:07:08.09 = 18878857 samples = 32106.9 CDDA sectors
File Size : 17.1M
Bit Rate : 320k
Sample Encoding: MPEG audio (layer I, II or III)
Comments :
Title=Der Totenrijtt
Artist=Häxenzijrkell
Album=Seis wies Sei / Der Totenrijtt
Tracknumber=2
Year=2020



[ Hidden Text ]
Cosmic_Sorcerer
Крутой сплит! Особенно Häxenzijrkell true_black.gif
This is a "lo-fi" version of our main content. To view the full version with more information, formatting and images, please click here.
Invision Power Board © 2001-2020 Invision Power Services, Inc.