Help - Search - Members - Calendar
Full Version: Test Dept. - Disturbance (2019)
Metal Area - Extreme Music Portal > Releases Area / Релизы > New Releases > Unformat R:
mirotvorets


*Artist: Test Dept.
*Album: Disturbance
*Year: 2019
*Genre: Industrial/Experimental
*Country: United Kingdom
*Format: mp3@CBR320kbps
*Size: 123MB

Tracklist:
1. Speak Truth To Power 06:21
2. Landlord 04:41
3. Debris 04:33
4. Full Spectrum Dominance 07:27
5. Information Scare 04:50
6. Gatekeeper 05:32
7. Gbh84 04:21
8. Two Flames Burn 07:53
9. Speak Truth to Power (Instrumental) 06:19
******************************
Total playing time: 51:57


youtube

Technical info

Input File: 02. Landlord.mp3
Channels : 2
Sample Rate : 44100
Precision : 16-bit
Duration : 00:04:41.88 = 12430908 samples = 21141 CDDA sectors
File Size : 11.8M
Bit Rate : 334k
Sample Encoding: MPEG audio (layer I, II or III)
Comments :
Title=Landlord
Artist=Test Dept.
Album=Disturbance
Tracknumber=2/9
Year=2019
Genre=Industrial
Discnumber=1/1



[ Hidden Text ]
zobero
TEST DEPT (UK) - 15.05 • СПБ // 16.05 • МСК
https://vk.com/testdept_russia2020
Snowblind
Благодарствую за подгон, заценить надобно в обязу.
Snowblind
Вот так тихой сапой подъехал однозначный кандидат на топ-19. Всегда говорил, что не стоит спешить с подведением итогов.
This is a "lo-fi" version of our main content. To view the full version with more information, formatting and images, please click here.
Invision Power Board © 2001-2020 Invision Power Services, Inc.