*Artist: Illarith
*Album: The Great Mortality [ep]
*Year: 2020
*Genre: Depressive Black Metal, Ambient
*Country: United States
*Format: mp3@CBR320kbps
*Size: 35MB

Tracklist:
1.Shadowplay / Yersinia Pestis 05:12
2.Aartsdiakonaat Kempenland 04:56
3.Die große Sterblichkeit 04:42
******************************
Total playing time: 14:50



Extended info
Line - up:

Näcken - Everything


Technical info

Input File: 01. Shadowplay Yersinia Pestis.mp3
Channels : 2
Sample Rate : 44100
Precision : 16-bit
Duration : 00:05:12.08 = 13762684 samples = 23405.9 CDDA sectors
File Size : 12.5M
Bit Rate : 320k
Sample Encoding: MPEG audio (layer I, II or III)
Comments :
Title=Shadowplay / Yersinia Pestis
Artist=Illarith
Album=The Great Mortality (EP)
Tracknumber=1
Year=2020
Genre=Depressive Black Metal, Ambient



[ Hidden Text ]