Help - Search - Members - Calendar
Full Version: Urine Tumor - Jésus Pisse, Le Messie Qui Pue À Fond De Balle [ep] (2019)
Metal Area - Extreme Music Portal > Releases Area / Релизы > Archive
necroscum


*Artist: Urine Tumor
*Album: Jésus Pisse, Le Messie Qui Pue À Fond De Balle [ep]
*Year: 2019
*Genre: Porno Goregrind
*Country: France
*Format: mp3@CBR320kbps
*Size: 11MB

Tracklist:
01. Il Découpe Sa Femme En Petits Morceaux Avec Un Économe (C'est Un Épluche-Patates, En Gros) 00:41
02. Uriné Turbo Racing Team: 103 Tuning Edition 00:34
03. Putain De Merde J'ai Paumé Mon Prépuce Dans Ton Boule! Pète Un Coup Pour Voir? P't'êt' Qui Va Être Propulsé Par Le Vent Émis Par Ton Anus, T'sais 00:42
04. Celle-Là C'est Pour Danser Le Tango... Ou Le Mordern-Jazz J'en Sais Rien, Merde 00:21
05. Tu Sais, Le Gros Habillé En Rouge, Avant De Rentrer Tout Son Corps Dans Ta Cheminée De Petit Bourgeois, Il Se Fait Juter Un Bon Coup Dans Celle-Ci Afin De La Lubrifier Un Maximum! Le Type Il S'tape 5 Milliards D'orgasmes En Une Nuit, C'fils De Pute 00:41
06. Présentation En Bonne Et Due Forme De L'artiste Le Plus Controversé Car Subversif De Cette Prochaine Décennie, C'est-À-Dire Moi, Bordel À Queue (Bonus Track) 00:26
07. J'te Chie À La Raie (De Bus Mmmdddrrrrr) (Bonus Track) 00:28
******************************
Total playing time: 3:53




Technical info

Input File: 02. Uriné Turbo Racing Team- 103 Tuning Edition.mp3
Channels : 2
Sample Rate : 44100
Precision : 16-bit
Duration : 00:00:34.69 = 1529917 samples = 2601.9 CDDA sectors
File Size : 1.60M
Bit Rate : 369k
Sample Encoding: MPEG audio (layer I, II or III)
Comments :
Title=Uriné Turbo Racing Team: 103 Tuning Edition
Artist=Urine Tumor
Album=Jésus Pisse, le messie qui pue à fond de balle
Tracknumber=2
Year=2019



[ Hidden Text ]
biroutios
Stupid.
vosmidesijatye
ЦИТАТА(biroutios @ Jan 15 2020, 00:42:35) *
Stupid.


The amount of this so called music that is uploaded here on a daily basis is unlimited.

Stop this for the better. Theres absolutely no use in this amateurish pseudo metal.
This is a "lo-fi" version of our main content. To view the full version with more information, formatting and images, please click here.
Invision Power Board © 2001-2020 Invision Power Services, Inc.