Help - Search - Members - Calendar
Full Version: Neutral - The World Of Disbelief (2019)
Metal Area - Extreme Music Portal > Releases Area / Релизы > New Releases > Unformat R:
as71


*Artist: Neutral
*Album: The World Of Disbelief
*Year: 2019
*Genre: Dark Folk
*Country: Russian Federation
*Format: mp3@VBR261kbps
*Size: 82MB

Tracklist:
01. The World Of Disbelief 05:50
02. Ghost Of All Wars 03:58
03. In The Wastelands Of Mine 04:43
04. Carvings In Stone 05:53
05. Beyond The Emptiness (Playroom II) 05:19
06. Bury 04:44
07. Unholy Day 06:08
08. When The Story Ends 05:57
******************************
Total playing time: 42:33



Extended info
Не очень много альбомов слушал в данном стиле, а понравилось так и совсем мало что, но вот этот недавно прослушанный альбом как-то сразу зацепил.


Technical info

Input File: 01 - The World Of Disbelief.mp3
Channels : 2
Sample Rate : 44100
Precision : 16-bit
Duration : 00:05:50.43 = 15454051 samples = 26282.4 CDDA sectors
File Size : 11.4M
Bit Rate : 261k
Sample Encoding: MPEG audio (layer I, II or III)
Comments :
Title=The World Of Disbelief
Artist=Neutral
Album=The World Of Disbelief
Tracknumber=01
Year=2019
Genre=Dark Folk



[ Hidden Text ]
tOmV
Serpents In The Dawn 2008 икона стиля
as71
ЦИТАТА(tOmV @ 15th January 2020 - 07:07:18) *
Serpents In The Dawn 2008 икона стиля

Уже закачал, буду слушать, ибо до с группой до этого был не знаком.
atom72
Ого, Эш снова запел на английском. Приятная неожиданность.
This is a "lo-fi" version of our main content. To view the full version with more information, formatting and images, please click here.
Invision Power Board © 2001-2020 Invision Power Services, Inc.