Help - Search - Members - Calendar
Full Version: Culto Al Qondor - Electricidad (2019)
Metal Area - Extreme Music Portal > Releases Area / Релизы > New Releases > Unformat R:
vosmidesijatye


*Artist: Culto Al Qondor
*Album: Electricidad
*Year: 2019
*Genre: Psychedelic Rock/Krautrock
*Country: Peru
*Format: mp3@CBR320kbps
*Size: 113MB

Tracklist:
1. E1 12:19
2. E2 12:38
3. Catedral (E3) 24:52
******************************
Total playing time: 49:49



Technical info

Input File: 01 - e1.mp3
Channels : 2
Sample Rate : 44100
Precision : 16-bit
Duration : 00:12:17.25 = 32512505 samples = 55293.4 CDDA sectors
File Size : 29.5M
Bit Rate : 320k
Sample Encoding: MPEG audio (layer I, II or III)
Comments :
Title=E1
Artist=Culto Al Qondor
Album=Electricidad
Tracknumber=1/3



[ Hidden Text ]
vosmidesijatye
Доля краута и медитативности увеличилась.

Зело круто.
This is a "lo-fi" version of our main content. To view the full version with more information, formatting and images, please click here.
Invision Power Board © 2001-2020 Invision Power Services, Inc.